首页 » 周边 » [MagicStar] 石子和羽男 番外篇 盐介与甘实 -荞麦出锅前是探案时间- / 塩介と甘実 -蕎麦ができるまで探偵- EP03 [WEBDL] [720p] [PARAVI]【生】

信息

发布代号: 魔星字幕团

发布时间: 2022-08-06 15:26:11

状态统计: 做种 53, 下载 0, 完成 5

健 康 度: 10

Tracker +超展开 -超还原

Announce:

http://open.acgtracker.com:1096/announce

Announce list:
  • udp://tracker4.itzmx.com:2710/announce
  • udp://tracker3.itzmx.com:6961/announce
  • udp://tracker2.itzmx.com:6961/announce
  • udp://tracker1.itzmx.com:8080/announce
  • http://tracker4.itzmx.com:2710/announce
  • http://tracker3.itzmx.com:6961/announce
  • http://tracker2.itzmx.com:6961/announce
  • http://tracker1.itzmx.com:8080/announce
  • udp://tracker.publicbt.com:80/announce
  • http://open.acgtracker.com:1096/announce
  • udp://tracker.openbittorrent.com:80/announce
  • udp://tracker.publicbt.com:80/announce
  • udp://tracker.prq.to:80/announce
  • udp://104.238.198.186:8000/announce
  • http://104.238.198.186:8000/announce
  • http://94.228.192.98/announce
  • http://share.dmhy.org/annonuce
  • http://tracker.btcake.com/announce
  • http://tracker.ktxp.com:6868/announce
  • http://tracker.ktxp.com:7070/announce
  • http://bt.sc-ol.com:2710/announce
  • http://open.acgtracker.com:1096/announce
  • http://btfile.sdo.com:6961/announce
  • https://t-115.rhcloud.com/only_for_ylbud
  • http://tr.bangumi.moe:6969/announce
  • http://exodus.desync.com:6969/announce
  • udp://coppersurfer.tk:6969/announce
  • http://tracker3.torrentino.com/announce
  • http://tracker2.torrentino.com/announce
  • udp://open.demonii.com:1337/announce
  • udp://tracker.ex.ua:80/announce
  • http://pubt.net:2710/announce
  • http://tracker.tfile.me/announce
  • http://bigfoot1942.sektori.org:6969/announce
  • http://t.nyaatracker.com/announce
  • udp://bt.sc-ol.com:2710/announce
  • http://nyaa.tracker.wf:7777/announce

详情


HD 720p from Paravi. The original story of “Ishiko to Haneo -Sonna Koto de Uttaemasu?-”.
alt text
alt text

General Unique ID                      : 276935768288630833022597188236948237985 (0xD057E38DC390FD376ED91AA8968F6EA1) Complete name                  : Shiosuke.to.Amami.Soba.ga.Dekiru.made.Tantei.EP03.720p.PARAVI.WEB-DL.AAC2.0.H.264-MagicStar.mkv Format                         : Matroska Format version                 : Version 4 File size                      : 168 MiB Duration                       : 9 min 23 s Overall bit rate               : 2 503 kb/s Encoded date                   : UTC 2022-08-06 07:23:53 Writing application            : mkvmerge v50.0.0 ('Awakenings') 64-bit Writing library                : libebml v1.4.0 + libmatroska v1.6.2 Cover                          : Yes Attachments                    : cover.png  Video ID                             : 1 Format                         : AVC Format/Info                    : Advanced Video Codec Format profile                 : [email protected] Format settings                : CABAC / 4 Ref Frames Format settings, CABAC         : Yes Format settings, Reference fra : 4 frames Codec ID                       : V_MPEG4/ISO/AVC Duration                       : 9 min 23 s Bit rate                       : 2 362 kb/s Width                          : 1 280 pixels Height                         : 720 pixels Display aspect ratio           : 16:9 Frame rate mode                : Constant Frame rate                     : 29.970 (29970/1000) FPS Original frame rate            : 29.970 (30000/1001) FPS Color space                    : YUV Chroma subsampling             : 4:2:0 Bit depth                      : 8 bits Scan type                      : Progressive Bits/(Pixel*Frame)             : 0.086 Stream size                    : 159 MiB (94%) Default                        : Yes Forced                         : No Color range                    : Limited Color primaries                : BT.709 Transfer characteristics       : BT.709 Matrix coefficients            : BT.709  Audio ID                             : 2 Format                         : AAC LC Format/Info                    : Advanced Audio Codec Low Complexity Codec ID                       : A_AAC-2 Duration                       : 9 min 23 s Bit rate                       : 125 kb/s Channel(s)                     : 2 channels Channel layout                 : L R Sampling rate                  : 48.0 kHz Frame rate                     : 46.875 FPS (1024 SPF) Compression mode               : Lossy Stream size                    : 8.43 MiB (5%) Language                       : Japanese Default                        : Yes Forced                         : No

文件清单 文件总数:1,文件总大小:168.3MB,特征码:aaeb402076b4491afec28323058c5b9df8815fca

 
  • Folder [MagicStar] Shiosuke to Amami -Soba ga Dekiru made Tantei- EP03 [WEBDL] [720p] [PARAVI]
    • 视频文件 Shiosuke.to.Amami.Soba.ga.Dekiru.made.Tantei.EP03.720p.PARAVI.WEB-DL.AAC2.0.H.264-MagicStar.mkv(168.3MB)
 

往期吐槽(0)

正在加载留言,请稍候......
我要吐槽(吐槽限制不多于 1000 字)
填写内容
|∀゚ (´゚Д゚`) (;´Д`) (`・ω・) (=゚ω゚)= | ω・´) |-` ) |д` ) |ー` ) |∀` ) (つд⊂) (゚Д゚≡゚Д゚) (^o^)ノ (|||゚Д゚) ( ゚∀゚) ( ´∀`) (*´∀`) (*゚∇゚) (*゚ー゚) ( ゚ 3゚) ( ´ー`) ( ・_ゝ・) ( ´_ゝ`) (*´д`) (・ー・) (・∀・) (ゝ∀・) (〃∀〃) (*゚∀゚*) ( ゚∀。) ( `д´) (`ε´ ) (`ヮ´ ) σ`∀´) ゚∀゚)σ ゚ ∀゚)ノ (╬゚д゚) (|||゚д゚) ( ゚д゚) Σ( ゚д゚) ( ;゚д゚) ( ;´д`) ( д ) ゚ ゚ ( ☉д⊙) ((( ゚д゚))) ( ` ・´) ( ´д`) ( -д-) (>д<) ・゚( ノд`゚) ( TдT) ( ̄∇ ̄) ( ̄3 ̄) ( ̄ー ̄) ( ̄ .  ̄) ( ̄皿 ̄) ( ̄艸 ̄) ( ̄︿ ̄) ( ̄︶ ̄) ヾ(´ω゚`) (*´ω`*) (・ω・) ( ´・ω) (`・ω) (´・ω・`) (`・ω・´) ( `_っ´) ( `ー´) ( ´_っ`) ( ´ρ`) ( ゚ω゚) (o゚ω゚o) ( ^ω^) (。◕∀◕。) /( ◕‿‿◕ )\ ヾ(´ε`ヾ) (ノ゚∀゚)ノ (σ゚д゚)σ (σ゚∀゚)σ |д゚ ) ┃電柱┃ ゚(つд`゚) ゚Å゚ )  ⊂彡☆))д`) ⊂彡☆))д´) ⊂彡☆))∀`) (´∀((☆ミつ
验证码